<?xml version="1.0" standalone="no"?> <!DOCTYPE svg PUBLIC "-//W3C//DTD SVG 1.0//EN" "http://www.w3.org/TR/2001/REC-SVG-20010904/DTD/svg10.dtd" > <svg xmlns="http://www.w3.org/2000/svg" width="100%" height="100%">
<defs >
<font horiz-adv-x="430" ><font-face
    font-family="Eurose"
    units-per-em="1000"
    panose-1="0 0 0 0 0 0 0 0 0 0"
    ascent="865"
    descent="-208"
    alphabetic="0" />
<missing-glyph horiz-adv-x="800" d="M50 0V800H750V0H50ZM700 50V750H100V50H700Z" />
<glyph unicode=" " glyph-name="space" horiz-adv-x="275" />
<glyph unicode="!" glyph-name="exclam" horiz-adv-x="272" d="M193 665L184 221H78L69 665H193ZM187 0H76V122H187V0Z" />
<glyph unicode="&quot;" glyph-name="quotedbl" horiz-adv-x="386" d="M349 667L328 400H241L220 667H349ZM166 667L145 400H57L37 667H166Z" />
<glyph unicode="#" glyph-name="numbersign" horiz-adv-x="670" d="M618 450L599 400H479L428 273H549L529 224H409L356 93H304L355 224H228L174 93H120L172 224H52L72 273H194L244 400H122L143 450H264L316 578H369L317 450H445L497 578H551L500 450H618ZM426
400H298L247 273H375L426 400Z" />
<glyph unicode="$" glyph-name="dollar" horiz-adv-x="621" d="M597 207Q597 83 540 40Q488 0 346 0V-75H274V0Q146 0 96 32Q24 78 24 216H139Q139 135 169 114Q191 99 274 99V292Q211 299 149 306Q89 317 63 351Q31 393 31 485Q31 601 100 642Q150 672 274 672V736H346V672Q475
672 519 642Q578 602 578 476H467Q467 538 445 554T346 570V390Q473 390 523 363Q597 323 597 207ZM274 393V570Q214 570 197 566Q148 554 148 488Q148 423 181 405Q203 393 274 393ZM480 193Q480 254 452 274Q432 288 375 288Q356 288 346 288V99Q422 99 447 113Q480
132 480 193Z" />
<glyph unicode="%" glyph-name="percent" horiz-adv-x="797" d="M780 174Q780 90 774 66Q757 -2 643 -2Q541 -2 515 41Q498 69 498 174Q498 264 518 295Q544 335 626 335Q731 335 759 300Q780 274 780 174ZM649 667L231 0H162L580 667H649ZM315 500Q315 390 286
359Q261 332 175 332Q78 332 50 378Q31 409 31 508Q31 602 54 632Q82 669 176 669Q267 669 293 633Q315 602 315 500ZM715 178Q715 252 705 266T639 280Q583 280 573 266T563 171Q563 145 563 135Q563 83 574 69T636 55Q690 55 702 69T715 136V178ZM247 500Q247
585 239 599T175 613Q115 613 107 600T98 504Q98 419 106 404T171 388Q227 388 237 403T247 500Z" />
<glyph unicode="&amp;" glyph-name="ampersand" horiz-adv-x="687" d="M680 73L621 0L542 67Q513 21 455 6Q417 -4 336 -4Q178 -4 126 26Q51 69 51 211Q51 291 75 327Q103 368 177 379Q143 409 133 432T123 504Q123 601 181 636Q225 662 330 662Q435 662 482 635Q545
599 545 500Q545 480 542 456H430Q430 527 418 543Q402 565 335 565Q288 565 270 557Q241 544 241 503Q241 468 250 451T290 408L490 235Q490 256 490 278T491 323H598V269Q598 234 596 207T585 154L680 73ZM459 138L244 320Q197 311 184 291T170 220Q170 133 199
112Q222 95 316 95Q383 95 409 102T459 138Z" />
<glyph unicode="&apos;" glyph-name="quotesingle" horiz-adv-x="206" d="M169 667L148 400H57L36 667H169Z" />
<glyph unicode="(" glyph-name="parenleft" horiz-adv-x="306" d="M260 -102Q140 -102 97 -54T54 116L53 477Q53 595 110 640Q156 676 260 676V572Q208 572 192 552T176 477V116Q176 50 188 25T243 0Q254 0 260 1V-102Z" />
<glyph unicode=")" glyph-name="parenright" horiz-adv-x="306" d="M257 102Q257 -20 200 -64Q150 -102 49 -102V2Q97 2 113 18Q133 38 133 102V485Q133 543 106 562Q90 573 49 573V676Q166 676 215 625Q257 581 257 485V102Z" />
<glyph unicode="*" glyph-name="asterisk" horiz-adv-x="621" d="M485 515L365 474L437 371L385 331L312 438L233 331L180 371L254 474L135 519L157 583L277 538V667H343V538L463 583L485 515Z" />
<glyph unicode="+" glyph-name="plus" horiz-adv-x="495" d="M480 321H278V124H217V321H16V380H217V577H278V380H480V321Z" />
<glyph unicode="," glyph-name="comma" horiz-adv-x="222" d="M164 3Q164 -64 140 -88T45 -112V-60Q78 -60 87 -48T97 0H53V120H164V3Z" />
<glyph unicode="-" glyph-name="hyphen" horiz-adv-x="234" d="M234 189H0V303H234V189Z" />
<glyph unicode="." glyph-name="period" horiz-adv-x="209" d="M159 0H49V122H159V0Z" />
<glyph unicode="/" glyph-name="slash" horiz-adv-x="600" d="M536 667L88 -100H5L452 667H536Z" />
<glyph unicode="0" glyph-name="zero" horiz-adv-x="621" d="M585 252Q585 106 536 55Q481 -3 322 -3Q152 -3 96 43Q33 95 33 255V412Q33 571 98 624Q154 670 312 670Q480 670 532 623T585 432V252ZM466 429Q466 520 439 543T311 566Q216 566 189 547Q156 523
156 438V249Q156 153 186 128T319 103Q413 103 439 129T465 252L466 429Z" />
<glyph unicode="1" glyph-name="one" horiz-adv-x="621" d="M434 0H314V560L143 387L69 466L281 667H434V0Z" />
<glyph unicode="2" glyph-name="two" horiz-adv-x="621" d="M547 0H49V138Q49 248 106 288Q143 314 265 335Q355 348 364 350Q427 368 427 461Q427 533 399 553Q377 569 300 569Q210 569 189 547T168 429H49Q49 568 86 611Q136 669 300 669Q433 669 483 634Q547
590 547 461Q547 351 505 304Q473 268 393 253T232 224Q188 213 179 191T169 101H547V0Z" />
<glyph unicode="3" glyph-name="three" horiz-adv-x="621" d="M561 193Q561 72 507 33T304 -6Q172 -6 118 33Q48 84 48 225H166Q166 141 189 119T307 97Q384 97 407 111Q440 131 440 200Q440 259 418 275T333 292H255V388L326 389Q392 389 411 405T430 486Q430
540 410 554Q386 571 299 571Q216 571 196 552T175 452H57Q57 588 108 632Q154 672 290 672Q419 672 470 649Q551 612 551 498Q551 428 533 395Q510 352 445 342Q512 330 536 297T561 193Z" />
<glyph unicode="4" glyph-name="four" horiz-adv-x="621" d="M582 144H505V0H386V144H27V282L320 667H505V239H582V144ZM386 239L384 574L127 239H386Z" />
<glyph unicode="5" glyph-name="five" horiz-adv-x="621" d="M563 242Q563 88 514 42T292 -5Q151 -5 100 48Q59 91 59 193H180Q180 128 209 110Q230 97 297 97Q396 97 420 124Q441 147 441 239Q441 306 426 327Q404 358 331 358Q250 358 229 353Q192 344 185 311H74V667H536V571H185V406Q210
438 255 450Q286 458 340 458Q460 458 511 411T563 242Z" />
<glyph unicode="6" glyph-name="six" horiz-adv-x="620" d="M554 213Q554 69 484 25Q435 -6 296 -6Q150 -6 94 51Q46 100 46 213V449Q46 582 109 630Q163 671 302 671Q433 671 480 643Q547 603 547 480H427Q427 535 409 551Q387 570 308 570Q217 570 193 552T168
458V342Q190 384 233 398Q261 407 321 407Q445 407 493 374Q554 332 554 213ZM432 204Q432 274 416 289Q396 308 306 308Q221 308 194 292T167 219Q167 131 187 114T304 96Q392 96 415 120Q432 138 432 204Z" />
<glyph unicode="7" glyph-name="seven" horiz-adv-x="621" d="M537 544L266 0H131L415 561H47V667H537V544Z" />
<glyph unicode="8" glyph-name="eight" horiz-adv-x="620" d="M559 191Q559 67 500 27Q448 -8 298 -8Q169 -8 119 21Q46 64 46 192Q46 262 71 295T162 343Q97 364 76 393T55 491Q55 605 119 642Q172 672 320 672Q440 672 487 644Q551 606 551 494Q551 414 523
382Q506 362 448 343Q514 328 536 295T559 191ZM431 489Q431 544 409 558T314 572Q220 572 198 559T176 487Q176 422 199 405T312 388Q389 388 410 407T431 489ZM441 195Q441 261 416 277T310 294Q218 294 196 281Q168 264 168 197Q168 137 191 118T300 98Q390
98 415 116T441 195Z" />
<glyph unicode="9" glyph-name="nine" horiz-adv-x="621" d="M559 253Q559 110 518 59Q464 -8 298 -8Q164 -8 117 19Q48 59 48 187H166Q166 122 197 107Q216 98 304 98Q383 98 408 115Q437 135 437 199V326Q425 289 385 273Q352 260 300 260Q167 260 119 289Q52
330 52 457Q52 588 109 633Q158 672 290 672Q432 672 486 639Q559 595 559 465V253ZM438 452Q438 531 416 550T304 570Q216 570 195 551T174 456Q174 391 204 374Q228 360 316 360Q389 360 408 371Q438 388 438 452Z" />
<glyph unicode=":" glyph-name="colon" horiz-adv-x="209" d="M159 345H49V467H159V345ZM159 0H49V122H159V0Z" />
<glyph unicode=";" glyph-name="semicolon" horiz-adv-x="208" d="M151 344H41V466H151V344ZM153 3Q153 -64 129 -88T34 -112V-60Q67 -60 76 -47T86 0H43V120H153V3Z" />
<glyph unicode="&lt;" glyph-name="less" horiz-adv-x="495" d="M461 67L33 286V388L461 607V486L160 337L461 187V67Z" />
<glyph unicode="=" glyph-name="equal" horiz-adv-x="495" d="M479 395H15V453H479V395ZM479 249H15V307H479V249Z" />
<glyph unicode="&gt;" glyph-name="greater" horiz-adv-x="495" d="M462 285L34 67V188L335 337L35 486V607L462 388V285Z" />
<glyph unicode="?" glyph-name="question" horiz-adv-x="524" d="M479 498Q479 411 453 372Q434 344 380 321T318 290Q292 268 292 212H180Q180 292 193 317Q210 349 276 378Q328 401 334 404Q370 426 370 488Q370 542 349 560T263 578Q197 578 178 558T158 464H49Q49
579 79 618Q120 671 256 671Q376 671 420 644Q479 608 479 498ZM290 0H180V122H290V0Z" />
<glyph unicode="@" glyph-name="at" horiz-adv-x="693" d="M647 375Q647 239 618 194Q593 155 524 155Q483 155 463 164Q435 177 428 213Q414 179 387 166T318 153Q241 153 214 199Q194 233 194 318Q194 428 228 464Q256 494 318 494Q356 494 378 485T418 446V491H499V280Q499
248 503 238Q511 217 538 217Q566 217 576 249T586 374Q586 513 552 541Q522 565 369 565Q191 565 153 532Q110 494 110 319Q110 151 148 110T342 69Q362 69 373 69Q439 69 477 76T526 108L584 81Q559 35 510 22T332 9Q149 9 99 65T48 315Q48 513 107 569T368 625Q540
625 588 588Q647 542 647 375ZM420 319Q420 388 406 410T345 433Q297 433 285 411T272 323Q272 253 283 234T340 215Q392 215 408 242Q420 262 420 319Z" />
<glyph unicode="A" glyph-name="A" horiz-adv-x="624" d="M621 0H492L449 128H163L123 0H-9L211 667H397L621 0ZM421 223L306 569L193 223H421Z" />
<glyph unicode="B" glyph-name="B" horiz-adv-x="630" d="M595 192Q595 90 553 45T407 0H58V667H396Q490 667 532 633Q579 595 579 500Q579 436 561 406Q539 369 480 355L486 342Q548 333 573 295Q595 261 595 192ZM453 481Q453 527 436 544T372 561H183V388H344Q407
388 428 404Q453 423 453 481ZM468 201Q468 257 446 275T366 293H183V104H345Q414 104 437 119Q468 139 468 201Z" />
<glyph unicode="C" glyph-name="C" horiz-adv-x="613" d="M592 239Q592 91 539 43T316 -5Q170 -5 114 37Q38 94 38 264V400Q38 554 94 612T316 671Q487 671 533 637Q589 596 589 443H463Q463 525 443 543T325 561Q225 561 198 539T170 422V266Q170 163 199 134T332
105Q420 105 445 129T470 204Q470 212 470 216Q470 221 470 227Q468 235 468 239H592Z" />
<glyph unicode="D" glyph-name="D" horiz-adv-x="663" d="M630 268Q630 135 590 76Q538 0 405 0H58V667H383Q528 667 585 595Q630 538 630 420V268ZM502 282V398Q502 495 476 526T371 557H184V108H363Q446 108 476 150Q502 187 502 282Z" />
<glyph unicode="E" glyph-name="E" horiz-adv-x="544" d="M496 0H45V667H493V561H167V387H477V294H167V105H496V0Z" />
<glyph unicode="F" glyph-name="F" horiz-adv-x="513" d="M495 560H185V379H479V275H185V0H58V667H495V560Z" />
<glyph unicode="G" glyph-name="G" horiz-adv-x="640" d="M612 354Q612 113 569 56Q523 -5 330 -5Q159 -5 96 53Q38 107 38 247V428Q38 578 111 629Q172 672 336 672Q498 672 550 638Q612 597 612 466H485Q485 528 457 546T333 565Q228 565 194 534Q166 508 166
433V245Q166 149 204 123Q233 103 330 103Q433 103 460 131T487 259H321V354H612Z" />
<glyph unicode="H" glyph-name="H" horiz-adv-x="677" d="M619 0H492V285H184V0H58V667H184V394H492V667H619V0Z" />
<glyph unicode="I" glyph-name="I" horiz-adv-x="243" d="M184 0H57V667H184V0Z" />
<glyph unicode="J" glyph-name="J" horiz-adv-x="514" d="M456 200Q456 85 411 40T248 -5Q131 -5 85 24Q23 63 23 174V261H143Q143 153 155 129T231 104Q287 104 308 123T330 199V667H456V200Z" />
<glyph unicode="K" glyph-name="K" horiz-adv-x="629" d="M646 0H486L244 286H184V0H57V667H184V395H244L463 667H619L351 342L646 0Z" />
<glyph unicode="L" glyph-name="L" horiz-adv-x="498" d="M493 0H58V667H187V112H493V0Z" />
<glyph unicode="M" glyph-name="M" horiz-adv-x="886" d="M829 0H709V562L501 0H387L176 559V0H58V667H262L441 172H445L621 667H829V0Z" />
<glyph unicode="N" glyph-name="N" horiz-adv-x="728" d="M669 0H459L180 558H176V0H57V667H266L545 109H549V667H669V0Z" />
<glyph unicode="O" glyph-name="O" horiz-adv-x="630" d="M604 248Q604 106 551 54Q490 -6 312 -6Q148 -6 92 52Q40 106 40 260V400Q40 558 105 617Q166 672 323 672Q492 672 550 614Q604 560 604 408V248ZM476 248V426Q476 510 449 537T325 564Q225 564 197 540T168
418V254Q168 154 198 126Q223 103 310 103Q410 103 443 132T476 248Z" />
<glyph unicode="P" glyph-name="P" horiz-adv-x="604" d="M582 440Q582 300 533 258T330 216H181V0H58V667H323Q467 667 518 629Q582 582 582 440ZM453 437Q453 513 433 536T338 559H181V326H325Q387 326 406 332Q453 347 453 437Z" />
<glyph unicode="Q" glyph-name="Q" horiz-adv-x="674" d="M676 90L625 15L567 58Q530 19 464 6Q420 -3 345 -3Q160 -3 100 52T40 272V392Q40 560 100 615T337 671Q518 671 572 609T626 347Q626 334 626 325T626 310Q626 235 624 197T613 134L676 90ZM498 337Q498
498 469 533Q444 563 335 563Q237 563 209 543Q168 513 168 406V248Q168 159 202 132T347 105Q402 105 422 110T462 132L301 238L353 314L494 216Q497 246 497 281T498 337Z" />
<glyph unicode="R" glyph-name="R" horiz-adv-x="635" d="M593 461Q593 359 563 322Q541 294 473 279V275Q529 275 557 241T585 146V0H458V136Q458 180 432 201T358 223H180V0H57V667H378Q494 667 543 623T593 461ZM463 433Q463 504 450 525Q431 556 366 556H180V330H358Q417
330 440 353T463 433Z" />
<glyph unicode="S" glyph-name="S" horiz-adv-x="592" d="M563 206Q563 74 508 34Q457 -3 289 -3Q130 -3 85 32Q33 72 33 213H152Q152 137 176 118T294 99Q381 99 405 111Q440 129 440 195Q440 254 407 273Q383 287 321 287H277Q145 287 99 316Q34 357 34 485Q34
600 91 637Q142 670 295 670Q452 670 501 629Q547 591 547 472H427Q427 532 402 552T294 572Q211 572 185 555T159 484Q159 433 178 414T249 394Q265 394 282 394T316 395Q439 395 488 368Q563 327 563 206Z" />
<glyph unicode="T" glyph-name="T" horiz-adv-x="517" d="M515 554H321V0H193V554H2V667H515V554Z" />
<glyph unicode="U" glyph-name="U" horiz-adv-x="663" d="M607 216Q607 86 552 41T335 -5Q182 -5 131 26Q59 70 59 215V666H186V215Q186 145 215 124T335 103Q426 103 451 120Q482 141 482 214V666H607V216Z" />
<glyph unicode="V" glyph-name="V" horiz-adv-x="596" d="M606 667L393 0H202L-9 667H121L298 107L475 667H606Z" />
<glyph unicode="W" glyph-name="W" horiz-adv-x="980" d="M983 667L806 0H622L490 509L350 0H169L-3 667H124L261 105H265L417 667H562L712 105L855 667H983Z" />
<glyph unicode="X" glyph-name="X" horiz-adv-x="610" d="M619 0H472L307 281L140 0H-10L207 344L6 667H153L307 402L459 667H604L408 344L619 0Z" />
<glyph unicode="Y" glyph-name="Y" horiz-adv-x="589" d="M599 667L354 256V0H228V256L-10 667H134L293 382L452 667H599Z" />
<glyph unicode="Z" glyph-name="Z" horiz-adv-x="570" d="M548 0H22V108L384 557H38V667H544V557L179 110H548V0Z" />
<glyph unicode="[" glyph-name="bracketleft" horiz-adv-x="306" d="M256 -100H53V667H256V572H172V-5H256V-100Z" />
<glyph unicode="\" glyph-name="backslash" horiz-adv-x="600" d="M595 -100H512L64 667H148L595 -100Z" />
<glyph unicode="]" glyph-name="bracketright" horiz-adv-x="306" d="M252 -100H49V-5H134V571H49V667H252V-100Z" />
<glyph unicode="^" glyph-name="asciicircum" horiz-adv-x="495" d="M473 360H364L247 587L129 360H21L180 670H314L473 360Z" />
<glyph unicode="_" glyph-name="underscore" horiz-adv-x="495" d="M495 -137H0V-63H495V-137Z" />
<glyph unicode="`" glyph-name="grave" horiz-adv-x="495" d="M345 557L320 511L149 587L189 660L345 557Z" />
<glyph unicode="a" glyph-name="a" horiz-adv-x="519" d="M466 0H360V58Q337 17 296 3Q267 -7 209 -7Q127 -7 88 20Q41 53 41 133Q41 218 87 253Q127 283 213 283Q281 283 309 273T355 233L354 304Q354 361 334 379T255 398Q203 398 184 380Q169 365 169 330H57Q57
421 113 450Q151 470 250 470Q362 470 406 444Q466 409 466 304V0ZM355 141Q355 180 337 193Q314 210 247 210Q195 210 173 195T151 146Q151 98 174 83Q192 71 244 71Q296 71 319 81Q355 96 355 141Z" />
<glyph unicode="b" glyph-name="b" horiz-adv-x="523" d="M484 242Q484 111 458 64Q421 -4 304 -4Q250 -4 219 11T161 70L164 0H54V667H164V404H168Q188 444 220 459T302 474Q416 474 454 414Q484 367 484 242ZM374 226Q374 319 358 349Q337 387 270 387Q202 387
181 346Q166 316 166 225Q166 147 180 121Q201 83 273 83Q339 83 359 119Q374 146 374 226Z" />
<glyph unicode="c" glyph-name="c" horiz-adv-x="485" d="M463 177Q463 68 420 31T254 -6Q132 -6 88 44T43 215Q43 356 77 407Q121 472 252 472Q374 472 416 437T458 303H352Q352 357 331 371T250 386Q185 386 170 356T155 216Q155 140 166 118Q185 80 252 80Q317
80 336 97T355 177H463Z" />
<glyph unicode="d" glyph-name="d" horiz-adv-x="522" d="M469 0H360L362 71Q337 25 305 10T215 -5Q99 -5 64 68Q41 116 41 250Q41 367 74 415Q113 472 219 472Q273 472 303 460T356 405V667H469V0ZM358 232Q358 318 344 345Q322 387 248 387Q184 387 164 351Q148
323 148 243Q148 140 171 108Q191 80 251 80Q321 80 341 112Q358 140 358 232Z" />
<glyph unicode="e" glyph-name="e" horiz-adv-x="501" d="M461 149Q462 141 462 127Q462 46 399 16Q353 -6 259 -6Q118 -6 75 49Q38 96 38 243Q38 372 77 419Q122 473 247 473Q392 473 432 411Q461 366 461 214H148Q148 130 162 108Q183 75 261 75Q305 75 324
86Q352 102 352 149H461ZM354 283Q354 352 336 372T250 392Q188 392 168 370T148 283H354Z" />
<glyph unicode="f" glyph-name="f" horiz-adv-x="306" d="M301 384H188V0H77V384H12V467H77V518Q77 611 119 642T298 673V588Q275 591 258 591Q219 591 204 575T188 518V467H301V384Z" />
<glyph unicode="g" glyph-name="g" horiz-adv-x="523" d="M468 -11Q468 -127 419 -169Q374 -208 255 -208Q185 -208 152 -200Q93 -186 71 -142Q61 -123 59 -102T56 -49H161Q161 -95 185 -111Q204 -124 252 -124Q311 -124 333 -109Q361 -90 361 -34V66Q341 27 303
10Q271 -4 223 -4Q112 -4 73 55Q39 106 39 238Q39 358 69 407Q109 472 220 472Q278 472 307 458T364 395L361 466H468V-11ZM359 237Q359 300 353 324Q338 385 253 385Q188 385 170 358T152 238Q152 141 170 113T254 84Q326 84 345 121Q359 148 359 237Z" />
<glyph unicode="h" glyph-name="h" horiz-adv-x="527" d="M471 0H360V290Q360 344 345 364Q327 388 274 388Q212 388 188 359T164 267V0H54V667H165L166 397Q192 444 222 459T307 475Q393 475 432 439T471 318V0Z" />
<glyph unicode="i" glyph-name="i" horiz-adv-x="208" d="M158 570H49V667H158V570ZM158 0H49V467H158V0Z" />
<glyph unicode="j" glyph-name="j" horiz-adv-x="198" d="M149 569H39V665H149V569ZM148 -22Q148 -91 123 -124Q94 -163 27 -163Q8 -163 -15 -158V-81Q18 -81 29 -65T40 -13V467H148V-22Z" />
<glyph unicode="k" glyph-name="k" horiz-adv-x="474" d="M479 0H346L191 208H164V0H54V667H164V285H191L321 467H446L282 247L479 0Z" />
<glyph unicode="l" glyph-name="l" horiz-adv-x="222" d="M167 0H55V667H167V0Z" />
<glyph unicode="m" glyph-name="m" horiz-adv-x="813" d="M758 0H645V288Q645 341 632 360Q615 384 564 384Q517 384 496 370Q461 346 461 274V0H348V291Q348 345 336 362Q320 384 267 384Q210 384 187 357T164 271V0H54V467H161L162 399Q186 440 220 456T304
472Q360 472 393 457Q437 437 447 389Q467 435 505 453T596 472Q683 472 720 435T758 310V0Z" />
<glyph unicode="n" glyph-name="n" horiz-adv-x="526" d="M470 0H360V288Q360 343 345 363Q327 386 273 386Q164 386 164 280V0H54V467H159L160 395Q186 438 220 456T306 474Q393 474 431 440T470 319V0Z" />
<glyph unicode="o" glyph-name="o" horiz-adv-x="512" d="M480 250Q480 95 443 48Q401 -6 259 -6Q123 -6 79 56Q45 104 45 238Q45 379 87 426T270 473Q390 473 433 431Q480 385 480 250ZM369 248Q369 336 351 361T267 387Q194 387 176 363T157 241Q157 130 173
104T263 78Q331 78 348 103Q369 133 369 248Z" />
<glyph unicode="p" glyph-name="p" horiz-adv-x="524" d="M485 237Q485 115 459 66Q421 -6 309 -6Q255 -6 226 6Q189 21 165 63V-197H54V466H161V401Q188 442 219 457T302 472Q416 472 455 410Q485 362 485 237ZM372 234Q372 329 355 357T272 386Q201 386 183
361T164 237Q164 149 181 119Q202 81 269 81Q338 81 357 117Q372 145 372 234Z" />
<glyph unicode="q" glyph-name="q" horiz-adv-x="526" d="M474 -197H364V63Q346 23 306 7Q274 -6 225 -6Q114 -6 74 56Q42 106 42 226Q42 353 69 402Q107 471 222 471Q277 471 308 458T365 402L364 467H474V-197ZM363 226Q363 331 343 358T255 386Q189 386 172
355T155 227Q155 145 169 119Q190 81 260 81Q328 81 349 123Q363 150 363 226Z" />
<glyph unicode="r" glyph-name="r" horiz-adv-x="415" d="M409 288H307Q308 309 308 321Q308 351 298 366Q283 388 246 388Q198 388 182 362T165 278V0H54V467H160L158 405H162Q180 440 211 457T281 474Q363 474 390 421Q409 384 409 288Z" />
<glyph unicode="s" glyph-name="s" horiz-adv-x="490" d="M457 148Q457 53 399 19Q355 -7 251 -7Q116 -7 75 25T34 147H146Q146 101 165 86T239 71Q306 71 324 80Q348 92 348 137Q348 171 333 182T283 193H234Q110 193 74 229T37 339Q37 406 73 438Q114 475 236
475Q361 475 405 444Q442 418 442 365Q442 359 442 353Q440 344 440 340H334Q334 377 305 389Q286 397 238 397Q224 397 217 397Q171 397 158 385T144 345Q144 309 157 297T206 285H255Q377 285 419 249Q457 216 457 148Z" />
<glyph unicode="t" glyph-name="t" horiz-adv-x="374" d="M368 178Q368 77 341 39Q309 -6 218 -6Q134 -6 101 20Q63 50 63 131V383H4V467H63V572H173V467H349V383H173V146Q173 116 175 107Q182 79 222 79Q253 79 265 97T278 151Q278 157 277 165T276 178H368Z" />
<glyph unicode="u" glyph-name="u" horiz-adv-x="522" d="M467 0H362L364 76H360Q340 29 304 11T213 -7Q55 -7 55 153V466H166V178Q166 123 179 105Q196 81 248 81Q315 81 338 112Q357 138 357 207V466H467V0Z" />
<glyph unicode="v" glyph-name="v" horiz-adv-x="433" d="M437 467L303 0H136L-5 467H109L219 77L321 467H437Z" />
<glyph unicode="w" glyph-name="w" horiz-adv-x="701" d="M699 467L594 0H435L350 375L267 0H107L2 467H111L189 76L281 467H420L508 76H512L591 467H699Z" />
<glyph unicode="x" glyph-name="x" horiz-adv-x="440" d="M444 0H313L220 171L128 0H-5L148 245L13 467H140L220 317L300 467H429L294 245L444 0Z" />
<glyph unicode="y" glyph-name="y" horiz-adv-x="427" d="M432 467L309 -29Q286 -123 258 -158Q218 -208 133 -208Q125 -208 122 -208Q104 -208 87 -205V-124L112 -127Q156 -127 178 -85Q192 -59 201 0H148L-5 467H110L228 70L318 467H432Z" />
<glyph unicode="z" glyph-name="z" horiz-adv-x="418" d="M398 0H20V96L266 385H40V467H398V374L148 83H398V0Z" />
<glyph unicode="{" glyph-name="braceleft" horiz-adv-x="495" d="M381 -188Q264 -188 229 -172Q167 -144 167 -42V107Q167 145 157 165Q144 190 111 199V295Q142 303 154 325T167 382V540Q167 637 232 664Q266 678 381 678V567Q332 567 315 557Q286 540 286 487V362Q286
317 275 291T230 244Q262 225 274 197T286 125V3Q286 -50 307 -67T381 -84V-188Z" />
<glyph unicode="|" glyph-name="bar" horiz-adv-x="495" d="M308 -167H187V666H308V-167Z" />
<glyph unicode="}" glyph-name="braceright" horiz-adv-x="495" d="M384 194Q354 186 341 164T328 107V-52Q328 -145 274 -171Q237 -189 114 -189V-79Q168 -79 188 -63T209 6V127Q209 171 220 197T265 244Q233 264 221 292T209 364V485Q209 538 189 555T114 572V677Q242
677 279 656Q328 628 328 530V382Q328 344 339 321T384 289V194Z" />
<glyph unicode="~" glyph-name="asciitilde" horiz-adv-x="495" d="M486 374Q461 318 431 288Q391 248 340 248Q305 248 246 280T150 312Q128 312 109 299T69 245L9 295Q33 351 63 382Q102 422 154 422Q189 422 252 390T346 358Q372 358 394 379Q411 395 426 424L486
374Z" />
</font>
</defs>
</svg>
